#TITLE:Ike Ike;
#SUBTITLE:- Ichigo 100% Ending;
#ARTIST:HINOI TEAM;
#TITLETRANSLIT:;
#SUBTITLETRANSLIT:;
#ARTISTTRANSLIT:;
#CREDIT:Xion Steel;
#BANNER:Ichigo 100%.png;
#BACKGROUND:Ichigo 100% bg.png;
#LYRICSPATH:Ichigo 100% - Ike Ike.lrc;
#CDTITLE:SS credit logo.png;
#MUSIC:Ichigo 100% - Ike Ike.mp3;
#OFFSET:0.433;
#SAMPLESTART:27.144;
#SAMPLELENGTH:12.300;
#SELECTABLE:YES;
#BPMS:0.000=156.000;
#STOPS:;
#BGCHANGES:0.000=Ichigo 100% - Ike Ike.avi=1.000=0=0=1,
240.000=Ichigo 100% - Ike Ike bg.png=1.000=0=0=1,
99999=-nosongbg-=1.000=0=0=0 // don't automatically add -songbackground-
;
// cache tags:
#FIRSTBEAT:2.000;
#LASTBEAT:227.000;
#SONGFILENAME:songs/Otaku's Dream 3rd Anime Mix/[Xion Steel] Ike Ike - Ichigo 100%/Ichigo 100% - Ike Ike.sm;
#HASMUSIC:1;
#HASBANNER:1;
#MUSICLENGTH:89.725;
// end cache tags

//---------------dance-single - Blank----------------
#NOTES:
     dance-single:
     Blank:
     Beginner:
     1:
     0.188,0.221,0.056,0.078,0.000,106.000,5.000,7.000,0.000,0.000:




0000
0000
0000
0000
,
0000
0000
0000
0000
,
1000
0000
0010
0000
,
0001
0000
0000
1000
,
0100
0100
0000
0010
,
0000
1000
0000
0000
,
0001
0001
0001
0000
,
1000
1000
1000
0000
,
0010
0000
0100
0000
,
1000
0000
0000
1001
,
0000
1000
0000
0001
,
0000
0010
0000
0100
,
0000
0001
0000
1000
,
0000
0010
0000
0100
,
0000
0001
0000
0100
,
0000
1000
0000
0010
,
0000
0000
2002
0000
,
0000
0000
0000
3003
,
0001
0000
0100
0000
,
0010
0000
1000
0000
,
0001
0000
0100
0000
,
0010
0010
0010
0010
,
0000
1000
0000
0010
,
0000
0100
0000
0001
,
0000
1000
0000
0010
,
0000
0100
0000
0000
,
0001
0001
0001
0000
,
1000
0000
0010
0000
,
0100
0000
0001
0001
,
0001
0000
0010
0000
,
0100
0000
0001
0000
,
1000
0000
0001
0000
,
0100
0000
0010
0000
,
1000
0000
0001
0000
,
0200
0000
0300
0000
,
0010
0000
1000
0000
,
0001
0000
1000
1000
,
1000
0000
0010
0000
,
0001
0000
0100
0000
,
1000
0000
0010
0000
,
1000
0000
0001
0000
,
0100
0100
0000
0000
,
2002
0000
0000
0000
,
0000
0000
0000
0000
,
3003
0000
1000
0000
,
0100
0000
0010
0000
,
1000
0000
0001
0000
,
0100
0000
0010
0000
,
1000
0000
0010
0010
,
0010
0000
0001
0000
,
1000
0000
0010
0000
,
1000
0000
1000
0000
,
1001
0000
0000
0000
,
1000
0000
0001
0000
,
0100
0000
0020
0000
,
0000
0000
0000
0030
,
2000
0000
3000
1001
;

//---------------dance-single - Blank----------------
#NOTES:
     dance-single:
     Blank:
     Easy:
     4:
     0.342,0.379,0.134,0.067,0.000,197.000,12.000,6.000,0.000,0.000:





0000
0000
0000
0000
,
0000
0000
0000
0000
,
1000
0100
1000
0010
,
0001
1000
0010
0010
,
1000
0100
0001
0100
,
0010
1000
0010
0100
,
0001
1000
0100
1000
,
0010
0010
1000
0001
,
0100
0010
1000
0010
,
0100
1000
0100
0110
,
1000
0001
0100
0010
,
1000
0010
0100
0001
,
1000
0100
0010
0100
,
0001
1000
0010
1000
,
0100
1000
0001
0010
,
0100
0001
0010
0100
,
1000
0100
1000
0010
,
0100
0001
1000
0001
,
0100
1000
0010
0100
,
0001
1000
0100
1000
,
0010
0100
0001
1000
,
0100
0100
0100
0100
,
1000
0010
0100
0001
,
1000
0010
0100
0001
,
0010
0100
1000
0010
,
0000
1001
0000
0000
,
0010
0100
1000
0000
,
0100
1000
0010
0100
,
0001
0100
0010
1000
,
0010
0100
0001
0010
,
0100
0001
1000
0010
,
0100
0001
0100
0010
,
1000
0001
0010
0100
,
2002
0000
0000
3003
,
0110
0000
0000
0110
0000
0000
1001
0000
,
0100
1000
0010
0100
,
1000
0001
0100
0010
,
1001
0100
1000
0010
,
0100
0001
0100
0010
,
0001
1000
0010
0100
,
1000
0001
0100
0010
,
1001
1001
0100
0010
,
0220
0000
0000
0330
,
2002
0000
0000
0000
,
0000
0000
0000
3003
0010
0000
0100
0000
,
1000
0010
0100
0001
,
0100
0100
0001
1000
,
0100
0010
0010
0100
,
1000
0001
1000
0001
,
0100
0010
1000
0001
,
0100
0010
1000
0010
,
0100
0001
0100
1000
,
0010
0000
0000
0000
,
0001
0010
1000
0100
,
0010
0001
0100
0010
,
0000
1000
0000
0010
,
0000
0100
0000
0110
;

//---------------dance-single - Blank----------------
#NOTES:
     dance-single:
     Blank:
     Medium:
     6:
     0.474,0.506,0.658,0.156,0.000,225.000,59.000,14.000,0.000,0.000:





















0000
0000
0000
0000
,
0000
0000
0010
1000
,
1100
1010
0100
1000
,
1010
1010
0100
0010
,
1001
1001
0100
1000
,
0110
0101
0010
0100
,
0110
1001
1000
1000
,
0101
0101
0010
0100
,
1001
1010
0100
0010
,
1000
0000
0100
0010
0001
0000
1001
0000
,
0100
0001
0010
0000
1000
0000
0010
0000
,
0100
0001
0100
0010
,
1000
0100
1000
0000
0010
0000
0100
0000
,
0100
0001
1000
0010
,
0100
0010
0010
1000
,
0100
0000
0010
0000
0100
0000
0001
0010
,
0100
0000
0010
0000
0100
0000
0000
2002
,
0000
0000
3003
0220
0330
1000
0001
0000
,
1000
0010
0100
0010
,
0110
1001
0100
0010
,
1000
0100
0010
0100
,
1001
1001
1001
1001
,
1000
0010
0100
0001
,
1000
0010
0100
0000
0010
0000
0100
0000
,
0001
1000
0010
0100
,
0010
0000
1000
0000
0001
1000
0010
0000
,
1001
0110
1001
1010
,
1010
0010
0001
1000
,
0100
0001
0100
0110
,
0110
0001
1000
0100
,
0001
0010
0100
0010
,
0100
1000
0001
0100
,
0010
1000
0100
0001
,
0101
0011
1000
0100
,
0220
0000
0330
2002
0000
3003
0110
0000
,
0110
1000
0010
0100
,
0010
1000
0001
1100
,
1010
0100
0001
0100
,
0001
1000
0010
0100
,
0010
0001
0001
0100
,
0010
1000
0010
0100
,
1000
0100
0010
0000
0001
0000
0010
0000
,
2002
0000
3003
0220
0000
0330
0000
0000
,
1010
0101
0000
0000
,
1000
0010
1001
1001
,
0010
1000
0101
0101
,
0100
0010
0110
0110
,
1000
0001
1100
0011
,
0010
1000
1100
0110
,
1000
0100
1001
0011
,
1000
0001
0110
0110
,
0001
0010
1000
0100
,
1001
2002
0000
3003
,
0010
0100
0001
1000
,
0100
0000
0001
0000
0100
0000
1000
0100
,
0010
0000
1000
0010
1000
0000
0100
0010
,
0001
0000
0010
0100
0010
0000
1001
0000
;

//---------------dance-single - Blank----------------
#NOTES:
     dance-single:
     Blank:
     Hard:
     8:
     0.673,0.632,0.936,0.156,0.022,325.000,84.000,14.000,0.000,2.000:








0000
0000
0000
0000
1000
0001
1000
0001
,
0000
0000
0000
1000
0100
1000
0001
0100
,
1001
0000
1001
0010
0100
0010
0100
1000
,
0011
0000
1001
0100
1000
0010
0100
0010
,
0101
0000
1010
0001
0010
0100
1000
0100
,
0110
0000
1010
0100
0001
0100
1000
0010
,
0110
0000
0011
1000
0010
0100
0001
0010
,
1100
0000
1001
1000
0100
0001
0100
0001
,
0110
0000
1010
0001
0100
0010
1000
0010
,
0101
0000
0000
1010
0000
0000
0110
0000
1001
0000
0000
0000
1001
0000
0000
0000
,
1000
0100
0010
0000
0000
1000
0100
1000
,
0001
0100
0010
1000
0101
0000
1010
0000
,
0010
0100
0001
0000
0000
0100
1000
0100
,
1000
0010
0100
0010
1100
0000
0011
0000
,
1000
0010
0100
0001
2000
0000
0100
0010
,
3000
0110
0000
0001
0100
1000
0100
0010
,
0000
0000
0000
0000
0000
0001
0010
0100
,
0000
0010
0100
1000
0000
0110
1010
0000
,
2000
0000
0001
0010
3000
1001
0000
0010
,
0000
0110
0101
0000
0000
0000
0000
2000
,
0000
0100
0001
0100
3010
0100
0010
0000
,
1001
1100
0110
0101
,
1000
0100
0001
0010
0100
0100
0000
1001
,
0000
0100
0010
0000
0000
0000
0000
2000
,
0000
0100
0010
0010
0100
0001
3000
0100
,
0001
0010
1000
0001
1001
1001
0000
0000
,
1001
0000
0000
1100
0000
0000
0110
0000
0011
0000
0001
0000
0010
0000
0001
0000
,
0010
1000
0100
0010
0000
0100
1000
0001
,
0000
0100
0001
1000
0000
0010
0100
0001
,
1000
0010
0100
1000
0000
0100
0010
1000
,
1001
0110
0011
1100
,
0100
0100
0001
0010
0000
0100
1000
1000
,
0000
0100
0010
0002
0000
0010
0103
1100
,
0110
0000
2002
0000
0000
3003
0000
0000
,
2100
0000
0000
3012
0000
1000
0010
0103
,
0001
0010
1000
0001
0000
0010
0001
0100
,
0000
1000
0100
0010
0000
0010
0100
0001
,
0100
0010
0010
0100
0000
0001
0100
0010
,
1001
0110
0110
1100
,
0100
1000
0100
0010
0000
0001
0010
0100
,
0000
0100
0010
2000
0000
0010
3100
1000
,
0110
0110
0110
0000
0000
0000
0000
0000
,
2002
0000
0000
3223
0000
0000
0000
0330
,
0100
0010
1000
0100
0000
0000
0000
0010
,
0100
1000
0001
0100
0110
0000
1010
0100
,
0010
1000
0001
0010
1100
0000
0011
0100
,
0001
0100
0010
1000
0110
0000
0101
0010
,
0100
0001
0100
0001
1010
0000
1100
0010
,
0001
0100
1000
0100
0011
0000
0110
0001
,
0010
0100
1000
0100
1001
0000
0110
0001
,
0100
0010
1000
0010
0101
0000
0101
0010
,
0100
0000
0010
0000
0100
0000
0001
0000
0110
0000
0000
1100
0000
0000
1001
0000
,
0100
0010
0100
0010
0000
0000
0000
0000
,
1010
0101
1100
1001
,
0110
0000
1100
0000
0110
0000
1001
0100
,
0000
1000
0000
0100
0000
0010
0000
0100
,
0010
0000
0000
0100
0000
0000
1000
0000
0010
0000
0100
0000
1001
0000
0000
0000
;

//---------------dance-single - Blank----------------
#NOTES:
     dance-single:
     Blank:
     Challenge:
     10:
     1.000,1.000,1.000,0.323,0.814,506.000,107.000,29.000,0.000,0.000:

0000
0000
0000
0000
1100
0110
0011
0110
,
0000
0000
0000
0100
1000
0100
1000
0010
,
0001
0010
0000
1000
0100
0000
0001
0000
0100
0000
1000
0000
0010
0000
0100
0000
,
0010
0100
0000
0100
0010
0000
1000
0000
0100
0000
1000
0000
0010
0000
0100
0000
,
0001
0010
0000
0100
1000
0000
0010
0000
0010
0000
1000
0000
0010
0000
0001
0000
,
0100
0001
0000
0001
0010
0000
0100
0000
0010
0000
1000
0000
0100
0000
0001
0000
,
0100
0010
0000
0001
0100
0000
0001
0000
0100
0000
0100
0000
1000
0000
0001
0000
,
0010
1000
0000
0001
0010
0000
0001
0000
0100
0000
1000
0000
0010
0000
0100
0000
,
0100
1000
0000
1000
0100
0000
0001
0000
0100
0000
1000
0000
0010
0000
1000
0000
,
0110
0000
0000
1001
0000
0000
1100
0000
0110
0000
0000
0000
1001
0000
0000
0000
,
0110
0000
1010
0000
1100
0000
0001
0010
0100
0010
0001
0100
0010
1000
0010
0100
,
0001
0100
0010
1000
0010
0001
0010
0100
0001
1000
0010
0100
0001
1000
0010
0000
,
1001
0000
1100
0000
0011
0000
1000
0010
0100
0001
0100
0010
1000
0010
0100
0000
,
2001
0000
0100
0000
0010
0000
0001
3000
1020
0000
0000
0000
1000
0000
0030
0000
,
1000
0100
1000
0001
0110
0000
0110
0000
1001
0100
0010
0100
0011
0000
1001
0100
,
0010
0000
0101
0010
1000
0010
0100
0001
1100
0000
0101
0000
1001
0000
2010
0000
,
0100
0001
0100
0001
0100
0001
0100
0001
0100
3001
2000
0000
3200
0000
0320
0000
,
0030
0002
0023
0230
0300
1001
1001
0000
,
2000
0100
0010
0100
0010
3100
0002
0010
0100
1000
0100
0010
0100
1003
0200
0010
,
0001
0010
0001
0310
0002
0010
0100
0010
0100
0010
0100
0010
0100
0010
2003
0100
,
0010
0001
0100
0000
0010
0000
0001
0000
0010
0000
0000
0000
0100
3010
0000
0000
,
1000
0100
0010
0000
0001
0010
0100
0000
0100
0010
0100
0000
0100
0010
0001
0000
,
1001
0110
0000
0101
0000
1010
0000
1010
,
0000
0000
0011
0000
0110
0000
0100
0010
1000
0100
1000
0010
0100
0000
2001
0000
,
0000
0000
0100
0000
0010
0000
0001
0000
0010
0000
0010
0000
0000
0000
0010
0001
,
0010
0001
0010
0001
0010
0000
0000
3000
0011
0000
0101
0000
0000
0000
0000
0000
,
1100
0000
0000
1001
0000
0000
0110
0000
0011
0000
1010
0000
0110
0000
0110
0000
,
0101
0000
0010
0100
1000
0100
0001
0100
0010
1000
0010
0100
0001
0010
0001
0010
,
0100
0001
0100
0010
1000
0010
0100
0010
1000
0000
1100
0000
0011
0000
1100
0000
,
0011
0000
1000
0010
0100
0001
0100
0001
0100
0001
0100
0010
1000
0010
0100
0001
,
1010
0000
0000
0000
0110
0000
0000
0000
1001
0000
0000
0000
0011
0000
0001
0100
,
0010
1000
0100
0010
0001
0100
0010
0001
1000
0100
0010
0100
0010
0001
0010
0001
,
0010
0001
0100
0010
0001
0000
1020
0000
0000
0000
0000
0000
0100
0000
0100
0030
,
0201
0000
0020
0000
0000
0000
0000
0330
,
2002
0000
0000
0000
0000
3003
0220
0000
0000
0330
1001
0000
1100
0000
1100
0000
,
1001
0000
0010
0100
0001
0010
0100
1000
0010
0100
1000
0010
0001
0100
0010
0100
,
0010
0001
0010
0100
0010
0001
0010
0100
1000
0000
0110
0000
0110
0000
1001
0000
,
1001
0000
0100
0010
1000
0100
0010
0001
0010
0001
0010
0100
1000
0100
0010
0000
,
1001
0000
0000
0000
1100
0000
0000
0000
0110
0000
0000
0000
1001
0000
0010
0100
,
0010
0100
1000
0010
1000
0010
0001
0100
0010
0100
0001
1000
0010
0100
0001
0010
,
0100
1000
0001
0010
0100
0000
0120
0000
0000
0000
0000
0000
0100
0000
0100
0030
,
0011
0110
2200
0000
0000
0000
0000
3300
,
2002
0000
0000
0000
0000
3003
0220
0000
0000
0000
0000
0000
0000
0000
0000
0330
,
1100
0110
1001
0110
0000
0000
0000
1000
,
0100
0000
1000
0000
0001
0000
0100
0000
0010
0100
0000
0100
0010
0000
0001
0000
,
0100
0000
0010
0000
1000
0000
0010
0000
0001
0010
0000
1000
0100
0000
0010
0000
,
0100
0000
0001
0000
0100
0000
1000
0000
1000
0100
0000
0010
0001
0000
0100
0000
,
0010
0000
1000
0000
0010
0000
0100
0000
0001
0010
0000
0010
0001
0000
0100
0000
,
0010
0000
0001
0000
0001
0000
0010
0000
0100
1000
0000
0010
0001
0000
1000
0000
,
0010
0000
0100
0000
1000
0000
0001
0000
0100
0010
0000
0010
0100
0000
0100
0000
,
0010
0000
0100
0000
1000
0000
0001
0000
0010
0100
0000
1000
0100
0000
0010
0000
,
0100
0000
1000
0000
0010
0000
0100
0000
1001
0000
0000
0101
0000
0000
1010
0000
,
1010
1010
0110
0110
0000
0000
0000
0000
,
1001
1100
0110
0011
,
0110
0000
1100
0000
0011
0000
1010
0011
,
0000
1100
0000
1100
0000
0011
0000
1010
,
1100
0000
0000
0110
0000
0000
0011
0000
1100
0000
0011
0000
1001
0000
0000
0000
;
